<?xml version="1.0" standalone="no"?>
<!DOCTYPE svg PUBLIC "-//W3C//DTD SVG 1.1//EN" "http://www.w3.org/Graphics/SVG/1.1/DTD/svg11.dtd">
<svg xmlns="http://www.w3.org/2000/svg">
<metadata>Generated by Fontastic.me</metadata>
<defs>
<font id="fluentformeditors" horiz-adv-x="512">
<font-face font-family="fluentformeditors" units-per-em="512" ascent="480" descent="-32"/>
<missing-glyph horiz-adv-x="512" />

<glyph glyph-name="column-2" unicode="&#98;" d="M491 0l-470 0-21 21 0 470 21 21 470 0 21-21 0-470z m-449 42l428 0 0 428-428 0z m194 455l42 0 0-484-42 0z m-224-21l498 0 0-105-498 0z"/>
<glyph glyph-name="rating" unicode="&#99;" d="M103 321c28 0 56 0 84 0 3-1 6 1 6 4 17 53 34 106 51 158 1 4 3 7 6 9 3 2 7 2 10 1 3-1 6-4 7-8 6-20 13-40 19-60 11-33 22-67 33-100 0-1 1-3 2-4 1 0 2-1 4 0 55 0 111 0 167 0 9 0 14-5 13-13 0-3-2-7-6-9-29-21-58-42-87-63-16-12-32-24-49-35-2-2-3-5-2-7 18-53 35-106 52-159 4-11-4-18-11-16-3 0-5 1-7 3l-134 97c-6 4-4 4-10 0l-134-98c-8-5-17-3-19 6 0 3 0 5 1 8 17 52 34 105 51 157 1 2 1 4 1 6-1 2-2 3-4 4-45 32-89 64-134 97-3 1-5 4-6 7-1 3 0 7 2 10 2 3 6 5 11 5z m18-274l1-1 3 2 121 88c9 7 11 7 20 0l121-88 4-2c0 2-1 3-1 5l-47 144c-3 6 0 13 5 16l106 77 20 14 0 1-155 0c-4 0-7 1-9 2-3 2-5 5-5 8-16 48-32 96-47 144-1 2-1 3-2 5-1-2-1-3-2-5-15-47-31-95-46-143-3-9-6-11-15-11l-156 0 4-3 123-89c5-3 8-10 5-16-13-39-26-79-39-118-3-10-6-20-9-30z m283-35c-1 0-2 0-3 0-4 1-7 3-9 5l-68 49-67 48-1 1-2-1-86-63-48-34c-5-4-12-6-18-3-5 2-9 6-10 12-1 4 0 8 1 12 16 49 34 103 51 156 1 1 1 1 1 2l-2 1c-34 25-68 49-103 74l-30 23c-5 2-8 6-9 11-1 5 0 10 2 14 4 5 10 8 17 8l104 0c21 0 42 0 63 0l0 0c0 0 0 0 0 0 17 53 35 106 52 158 1 5 4 9 7 12 5 3 10 4 15 2 6-2 10-6 12-12 5-16 10-31 15-47l10-32c9-27 18-54 27-81 46 0 93 0 139 0l28 0c5 0 11-2 15-6 3-4 5-8 4-13 0-6-3-11-8-14l-77-55-23-17c-12-9-24-18-36-26 7-21 14-42 21-63 10-32 20-64 31-96 2-6 1-14-3-19-3-4-8-6-12-6z m-148 116c2 0 4-1 6-2l3-2 66-48 67-49c1-1 3-2 4-2 2-1 3 0 4 1 2 2 2 5 1 7-10 32-20 64-31 96-7 21-14 42-20 63-3 5-1 11 4 14 12 8 24 17 36 26l23 17 77 55c3 2 3 4 3 5 0 1 0 2-1 3-2 2-4 2-6 2l-27 0c-47 0-94 0-140 0-6 0-11 3-12 9-9 27-18 55-26 81l-11 32c-5 16-10 32-15 47 0 2-2 4-4 5-1 0-2 0-3-1-2-2-3-3-3-5-18-53-35-106-52-159-1-5-6-9-12-9-21 0-42 0-63 0l-104 0c-5 0-6-1-6-2-2-3-1-5 3-8l31-23c34-25 68-50 102-74 6-4 9-11 6-17-18-53-35-107-51-157-1-2-1-3-1-5 0-2 1-3 3-3 2-1 4 0 6 1l48 35 86 63c1 0 2 1 2 1 2 2 5 3 7 3z m146-97l-18 12-121 88c-7 5-7 5-14 0l-127-92-8 5 4 14 7 21 38 118c2 5 1 6-3 9l-122 89c-1 0-2 1-3 2l-16 12 174 0c6 0 7 1 9 7l46 143c0 1 1 2 1 3l7 18 7-17c0-2 0-3 1-3l47-145c1-5 2-5 7-5l161 0 2-10-129-94c-4-3-5-4-3-9l47-145c0 0 0-1 1-2z m-346 266l112-81c8-5 11-15 7-23l-39-118c-1-5-3-9-4-14l110 80c11 8 17 8 28 0l110-80-43 132c-4 8-1 18 7 23l113 81-138 0c-10-1-18 5-20 14l-43 132-42-131c-2-10-11-16-21-15z"/>
<glyph glyph-name="checkable-grid" unicode="&#100;" d="M428 34l-409 0-18 18 0 408 18 18 409 0 18-18 0-40-37 0 0 22-371 0 0-372 371 0 0 42 37 0 0-60z m-19 290l37 0 0-104-37 0z m-204 142l37 0 0-420-37 0z m-204-192l445 0 0-36-445 0z m337 7l-71 78 27 25 48-53 147 112 22-29z m0-201l-71 78 27 25 48-53 147 112 22-29z"/>
<glyph glyph-name="hidden-field" unicode="&#101;" d="M75 106l338 326 25-26-338-326z m181 13c-90 0-175 39-233 108l-8 0-15 28 1 0-1 1 15 28 8 0c58 68 143 108 233 108 90 0 175-40 233-108l8 0 15-28-1-1c1 0 1 0 1 0l-15-28-7 0c-59-69-144-108-234-108z m-211 136c52-63 129-100 211-100 82 0 159 37 211 100-52 64-129 101-211 101-82 0-159-37-211-101z m211-62c-35 0-63 28-63 62 0 35 28 63 63 63 35 0 63-28 63-63 0-34-28-62-63-62z m0 89c-15 0-27-12-27-27 0-14 12-26 27-26 15 0 27 12 27 26 0 15-12 27-27 27z"/>
<glyph glyph-name="section-break" unicode="&#102;" d="M121 407c-3 6-5 14-6 22 0 17 7 35 21 46 15 14 34 23 54 25 25 5 51 1 74-12 16-8 28-21 35-37 5-13 5-28-1-41 0-1-1-2-1-4l3 0c27 0 54 0 81 0 5 1 10-1 13-4 4-4 5-9 5-14-1-28 0-57 0-86l0-5 1 0c22 9 47 3 63-14 14-13 23-30 27-49 7-31 2-63-16-89-7-12-19-22-33-27-12-5-26-5-38 0l-4 1c0-1 0-2 0-4 0-29 0-59 0-89 0-4-1-9-5-12-3-4-7-5-12-4-41 0-83 0-124 0-6-1-11 2-14 7-4 7-2 15 4 19 8 6 14 14 17 23 5 15 1 32-10 43-13 12-29 19-47 19-17 0-33-7-46-20-8-8-12-20-11-32 1-12 7-23 17-31l3-2c5-4 6-10 4-16-2-6-7-10-14-10l-125 0c-5 0-9 1-12 4-3 3-5 8-5 12 0 32 0 65 0 97 0 6 3 12 8 15 6 2 12 1 17-3 11-9 28-7 37 4 8 8 14 17 17 28 10 28 8 60-5 87-4 8-9 14-15 20-10 8-25 8-35 0-4-4-10-5-15-3-6 3-9 9-9 15l0 105c0 4 2 9 5 12 2 2 7 4 11 4l86 0z m259-250l3-3c5-4 10-8 15-12 12-10 30-11 43-3 8 5 15 11 20 19 12 21 16 47 11 70-2 17-10 31-21 43-14 15-36 17-52 4-4-2-8-6-11-9l-8-6 0 128-121 0c0 1 1 2 1 2 5 6 10 11 15 16 8 10 11 23 7 35-3 13-12 23-24 30-20 12-45 15-68 11-15-3-29-9-40-19-9-7-15-18-16-30 0-11 4-22 13-30 3-5 7-9 11-13 0-1 1-1 1-2l-121 0 0-95 3 1c14 7 31 6 44-3 12-7 21-18 26-30 13-30 16-63 6-94-3-16-11-30-22-41-14-16-37-20-55-10l-2 0 0-87 112 0-3 4c-19 22-19 56 0 78 30 34 81 38 116 9 13-11 21-27 22-43 1-17-5-34-16-46 0-1-1-2-1-2l112 0z m-313-155l-31 0c-7 0-13 2-18 7-5 4-7 11-6 17l0 32c0 22 0 43 0 65-1 9 4 17 12 21 8 4 17 3 24-2 4-4 9-5 15-5 5 1 10 3 13 7 7 7 12 16 15 25 9 27 7 56-5 82-3 6-7 12-13 17-7 6-18 6-25 0-6-6-16-7-24-3-8 3-13 12-12 21l0 105c-1 7 2 13 6 17 4 4 11 7 17 6l75 0c-1 5-2 10-2 14-1 21 8 40 23 53 16 15 36 24 58 27 27 5 55 0 79-13 17-9 31-23 38-41 5-13 6-27 2-40l16 0c19 0 38 0 57 0 7 1 14-2 19-7 5-5 7-11 7-18 0-21 0-41 0-62l0-20c22 6 46-1 62-18 15-14 24-33 28-53 8-32 2-67-17-94-8-14-21-25-37-31-12-4-25-5-37-2l0-82c0-7-2-14-7-18-4-5-11-7-18-7l-123 0c-8 0-17 4-21 12-5 9-3 21 6 28 6 5 12 12 14 20 5 12 1 26-8 35-11 11-25 16-40 16l-1 0c-15 0-29-6-40-17-6-7-10-16-9-26 1-10 6-20 14-26l3-2c7-6 10-16 6-25-3-9-11-15-21-15z m-33 129c-1 0-2 0-3 0-2-1-4-3-4-8 0-22 0-43 0-65l0-32c0-6 2-8 9-8l125 0c3 0 6 1 7 4 1 3 0 6-2 8l-3 2c-11 9-18 22-19 37-1 14 3 27 13 37 13 15 32 23 51 22 20 1 38-7 52-21 13-13 18-32 12-50-4-11-10-20-20-27-2-2-3-6-2-9 2-2 3-3 8-3l124 0c6 0 9 2 9 9l0 89c0 1 0 2 0 3l0 12 14-6c11-4 23-4 33 0 12 5 23 14 30 25 16 24 21 54 14 83-3 17-12 33-24 45-14 15-36 20-55 12-1 0-2-1-3-1l-9-1 0 15 0 24c0 21 0 41 0 62 0 3-1 5-3 8-2 1-5 2-7 2-20 0-39 0-58 0l-37 0 4 11c0 1 1 2 1 3 5 11 5 24 0 35-5 15-16 27-30 34-22 11-46 15-70 11-18-2-36-10-49-23-12-10-19-25-19-41 1-7 2-13 5-19l5-11-98 0c-2 0-4-1-6-2-2-2-2-4-2-6l0-105c0-3 1-6 4-7 3-2 6-1 8 1 12 11 31 11 44 0 7-6 13-14 17-23 14-29 16-62 5-92-3-12-10-23-19-32-12-13-33-15-47-4-1 2-3 2-5 2z m354-110l-136 0 10 13 1 2c10 11 16 25 15 40-1 15-8 29-20 38-15 13-35 19-54 18-20-2-38-11-51-25-17-20-17-49 0-69l14-17-137 0 0 105 10-2c1 0 2-1 3-1 16-8 35-5 46 8 10 11 18 24 21 38 9 29 7 60-6 88-5 12-13 21-23 28-11 7-25 8-37 2l-2-1-12-5 0 115 112 0-1 1c-10 10-15 23-15 37 1 13 8 26 18 35 13 10 28 18 44 20 25 5 51 1 74-12 13-7 23-19 28-34 4-14 0-30-9-41-2-2-3-4-5-6l111 0 0-120c3 2 5 4 7 6 19 14 45 11 62-6 12-12 21-28 23-46 6-26 2-53-12-75-5-10-13-17-22-23-16-10-37-8-52 4l-5 4z m-105 15l89 0 0 137 20-17c4-3 7-5 10-7 10-9 24-10 36-3 6 4 12 10 16 17 12 19 15 42 10 64-2 15-9 28-19 39-11 12-29 14-42 4-2-2-5-4-7-6l-4-3-20-17 0 137-129 0 10 13 2 2 4 5c4 3 7 7 10 11 6 7 9 18 6 27-3 11-11 20-21 25-19 11-42 15-63 10-14-2-26-8-36-17-8-5-13-14-13-24-1-9 3-18 10-25l11-12c1-1 1-2 2-3l8-13-127 0 0-76c14 5 30 2 43-6 13-8 23-20 29-34 14-31 17-67 7-99-4-17-13-32-25-45-13-15-35-21-54-15l0-69 89 0c-16 25-13 58 6 80 15 18 37 29 61 31 24 2 48-6 66-21 27-22 33-60 15-90z"/>
<glyph glyph-name="recaptha" unicode="&#103;" d="M227 336l66 66c-45 14-93 7-132-18-39-24-66-65-74-110l27-27c1-2 3-3 5-5 2 11 4 20 7 30 3 9 7 18 11 26 18 30 47 52 81 60 7 1 9 0 9-7-1-5 0-10 0-15z m211-104c0-2 0-3 0-5 0-1-1-5-1-7 0-1 0-2 0-2 0-3-1-6-1-9 0 0 0 0 0-1-1-3-2-6-2-9-3-8-6-17-9-26l87 88c-7 0-13 0-19 0-6 0-8 2-8 7-1 6-2 13-4 19-21 97-100 171-199 186-10 2-21 2-32 4 14-16 28-30 42-44 20-5 40-13 59-25 13-8 25-18 35-29l1-1c3-3 7-7 10-11l0-1c7-8 12-16 17-25l1-1c2-4 4-8 6-13l1-2c2-4 4-9 6-13 0-1 0-1 0-1 2-5 3-9 4-14 0 0 0-1 0-1 2-5 3-10 4-14l0-3c1-5 1-9 2-14 0-1 0-2 0-3 0-5 1-10 1-15 0-3 0-7 0-10z m-29 29c0 4-1 7-2 11 0 1 0 1 0 2 0 3-1 6-2 10 0 0 0 1 0 2-1 3-2 7-3 10-1 1-1 2-1 2-1 4-2 7-4 10l0 1c-2 3-3 7-5 10l-1 2c-3 7-7 13-12 19l-1 2c-2 3-4 6-6 9l-1 0c-2 3-5 6-7 8l-1 1c-3 3-5 5-8 8-1 0-1 0-1 1-6 5-12 10-19 14l-1 0c-6 5-13 8-20 12l-1 0c-4 2-8 3-11 4-15-14-30-29-45-44-2-1-5-3-7-4 0-1 1-2 2-3l7-1c43-6 80-36 94-78 2-6 0-8-6-8-6 0-12 0-18 0l70-71c1 4 3 8 4 13 0 0 0 0 0 1 1 4 2 8 3 12 0 1 0 2 0 2 1 4 1 9 2 13 0 1 0 1 0 2 0 4 1 9 1 14 0 4 0 7-1 11z m-297-60c-2 9-2 9 8 9 6 0 12 0 19 0l-53 53c-1-5-1-11-1-16 0-6 0-11 1-17 0-5 1-10 2-15 0 0 0 0 0 0 1-5 3-10 4-15 0 0 0-1 0-1 1-5 3-9 5-14l0-1c2-4 4-9 6-13l0-1c3-4 5-8 8-12l0-1c3-4 5-8 9-12l0 0c3-4 6-8 10-11 3-4 7-7 11-10 4-4 8-7 12-10 4-3 8-5 13-8 23-13 50-21 77-21l0 16-7 1c-58 5-107 44-124 99z m34-117c-3 2-6 3-8 5-2 2-5 3-7 5-2 2-5 4-7 6l0 0c-3 2-5 4-7 6l0 0c-2 2-4 4-6 6l-1 1c-2 2-4 3-5 5l-2 2c-1 2-3 4-5 6l-1 1-4 6-1 2c-2 1-3 3-5 5l-1 2c-1 2-2 4-3 6l-2 2-3 6-1 3c-1 2-2 3-3 5-1 2-1 2-2 3l-2 6-1 3c-1 2-2 3-2 5-1 2-1 3-1 4-1 1-2 3-2 5l-1 4c-1 2-1 3-2 5 0 2 0 3-1 5l-1 4-1 5c0 2 0 3 0 5-1 1-1 3-1 5 0 2 0 3-1 4 0 2 0 4 0 6-1 2 0 3 0 4 0 3 0 6 0 10 0 3 0 7 0 10 0 0 0 0 0 1 0 3 0 7 1 10l-57-57c0 0 1 0 1 0 8 0 16-1 24 0 6 0 8-2 9-8 18-83 67-139 148-167 20-7 40-10 61-10l0 29c-34 1-68 11-97 29z m-125 159c13 13 25 25 38 38 16 91 95 157 188 157 10 0 20-1 29-2l-49 50 0-7c0-16 0-16-16-18-92-15-166-84-187-175-4-14-5-29-8-44l3-1z"/>
<glyph glyph-name="html" unicode="&#104;" d="M35 252l115-46 0-36-150 69 0 27 150 69 0-36z m175-141l-30 0 112 290 28 0z m267 142l-121 48 0 34 156-69 0-27-156-69 0 35z"/>
<glyph glyph-name="shortcode" unicode="&#105;" d="M0 17l0 478 106 0 0-25c0-4-2-8-5-12-3-3-8-4-13-4l-35 0 0-396 35 0c5 0 10-2 13-5 3-3 5-7 5-12l0-25z m212 78c-1-3-3-7-6-10-2-3-5-5-8-7-3-2-6-4-10-5-3-1-6-1-10-1l-27 0 151 385c3 7 7 13 13 17 6 4 13 6 20 6l27 0z m194-78l0 25c0 4 2 8 5 11 3 3 8 5 12 5l36 0 0 396-36 0c-4 0-9 1-12 4-3 3-5 8-5 12l0 25 106 0 0-478z"/>
<glyph glyph-name="terms-condition" unicode="&#106;" d="M463 73c13 0 24 0 35 0 11 0 14-5 13-15 0-32-27-58-59-58-98 0-197 0-295 0-16 0-32 7-43 18-11 12-17 28-17 44 0 122 0 243 0 365l0 12-81 0c-13 0-16 4-16 16 1 28 23 52 51 56 17 1 34 1 51 1l296 0c34 0 58-19 64-51 1-4 1-9 1-14 0-121 0-242 0-363z m-350 415c3-14 8-27 9-40 1-52 0-103 0-155 0-77 0-155 0-232 0-10 3-19 10-26 6-7 15-10 25-10 9-1 19 2 26 9 7 6 11 15 12 24 1 12 3 15 16 15 71 0 142 0 213 0l14 0c0 4 1 7 1 10 0 122 0 244 0 366 0 25-15 39-40 39-65 0-130 0-195 0z m96-463c3 0 5-1 7-1 78 0 155 0 233 0 3 0 6 1 10 1 12 2 22 11 25 24-15 0-29 0-43 0-71 0-142 0-213 0-3 0-8-1-10-4-4-6-6-13-9-20z m-182 439l67 0c-5 14-18 23-33 24-15 0-29-10-34-24z m254-245l117 0c11 0 16-3 16-12 0-8-5-12-15-12l-237 0c-11 0-16 4-15 12 0 9 5 12 16 12z m-1 25l-119 0c-9 0-14 2-15 11 0 9 4 13 14 13 15 0 29 0 44 0 64 0 128 0 193 0 5 0 11-2 15-5 2-4 3-8 1-12-3-4-8-7-12-7-41 0-81 0-121 0z m1 73l119 0c10 0 15-6 14-15-1-9-7-10-14-10-16 0-33 0-49 0-63 0-125 0-187 1-6 0-12 2-16 6-6 9 1 18 13 18z m-1 24c-39 0-78 0-117 0-6 0-11 2-15 6-2 4-2 8 0 12 3 4 7 6 12 6 23 1 45 1 68 1 56 0 113 0 169 0 5 0 10-2 14-5 3-4 3-9 1-13-3-4-8-6-13-6-35-1-70 0-105 0l-14 0z m0-195l-118 0c-6 0-12 0-15 8-4 9 2 16 13 16 33 0 66 0 99 0 46 0 92 0 138 0 5 0 10-1 14-5 3-3 3-8 1-12-3-4-8-6-13-6-30-1-60 0-91 0z m0 244l-118 0c-6 0-12 0-15 8-3 9 2 16 14 16 26 0 52 0 78 0l159 0c8 0 15-1 16-11 1-9-4-13-15-13-40 0-80 0-119 0z m-18 73c18 0 35 0 52 0 10 0 15-4 15-12 0-8-5-12-15-12-35 0-70 0-104 0-10 0-15 4-15 12 0 8 5 12 15 12z m-80-365c-8 0-16 0-24 0-3-1-6 0-8 3-3 2-4 5-3 8-1 4 0 7 2 9 3 3 6 4 9 4 17 0 34 0 50 0 7 0 12-6 12-13 0-6-6-12-12-11-9-1-17 0-26 0z m196 0c-8 0-16 0-24 0-7-1-12 5-13 11 0 7 6 13 12 13 17 0 33 0 50 0 3 0 6-1 8-4 2-2 4-5 3-9 0-3-1-6-3-8-2-3-6-4-9-3-8-1-16 0-24 0z"/>
<glyph glyph-name="action-hook" unicode="&#107;" d="M258 505c6-2 10-8 9-15 0-18 0-36 0-54 7-3 13-6 20-10 15-11 23-30 19-48-2-18-15-33-32-39-4 0-7-4-7-9 1-16 0-32 0-48 7-1 12-2 18-3 44-9 81-40 98-82 19-44 13-94-16-132-20-30-51-50-86-56-5-1-10-1-15-2l-20 0c-8 1-16 2-23 4-47 11-84 46-98 92-5 13-7 26-7 40-1 5 2 10 6 12 5 2 10 2 14-2l50-36c4-2 6-6 6-11-1-4-3-8-8-10-4-2-9-1-12 2-8 6-16 12-24 18-2 1-4 2-6 2 3-8 6-15 9-23 20-38 51-60 95-64 61-4 114 40 121 101 7 61-36 116-97 125-5 1-10 1-15 1-4 0-8 2-10 5-3 2-4 6-3 9 0 20 0 40 0 60 0 3-1 5-5 7-21 6-35 25-35 47 0 21 14 41 35 47 2 0 3 1 4 2 1 2 1 3 1 5 0 16 0 33 0 49-1 7 3 13 9 16z m25-119c0 16-12 28-28 28-15-1-27-13-27-28 0-15 13-28 28-27 7 0 14 3 19 8 5 5 8 12 8 19z m-17-386l-21 0-7 1c-6 1-11 2-17 4-49 11-88 48-103 96-4 14-7 28-6 42-1 7 3 14 9 18 7 3 15 2 21-2l6-5c15-10 29-21 43-31 6-4 9-11 8-17 0-7-5-12-11-15-6-3-13-2-18 2-4 3-9 6-13 9 0-1 1-3 2-4 16-35 50-58 89-60 53-4 102 32 113 84 6 29 0 59-17 84-17 24-43 40-72 45-3 0-6 0-9 0l-7 1c-5 0-10 2-14 6-3 4-5 9-4 14l0 3c0 19 0 38 0 57l0 1-1 0c-23 7-39 29-39 53 0 24 16 46 39 53l1 0 0 1c0 8 0 16 0 24 0 8 0 17 0 25-1 9 4 18 13 22l0 1 8 0 1-1c9-2 15-11 14-21l0-50 3-1c5-2 9-5 14-8 17-12 26-34 21-55-3-20-17-36-36-43-1 0-1 0-2-1 0 0 0 0 0-2 0-11 0-23 0-34l0-9c4 0 8-1 12-2 50-12 84-41 102-86 20-48 15-95-16-138-21-31-53-51-90-58-3-1-7-1-11-2z m-20 13l19 0 4 1c3 1 7 1 10 2 34 6 63 24 83 52 27 36 33 85 14 126-15 40-50 70-92 78-4 1-8 2-12 2l-6 1-5 1 0 20c0 11 0 23 0 34-1 7 4 14 10 16 15 4 26 17 29 32 3 17-4 33-17 42-4 3-8 5-12 7l-6 3-4 2 0 58c0 6 0 7-4 9l-2 0c-3-2-5-4-4-9 0-9 0-17 0-25 0-9 0-17 0-25 0-6-4-11-10-13-18-5-30-22-30-41 0-18 12-35 30-40 6-2 10-8 9-14 0-19 0-38 0-56l0-3c0-6 2-7 7-8 2 0 5 0 7 0 2-1 6-1 9-1 33-5 62-23 81-51 19-27 26-61 20-93-13-59-67-100-127-95-45 3-79 26-100 67-2 5-4 11-6 16-1 3-2 5-3 8l-4 10 11-2c3 0 6-1 8-3l8-5c6-5 11-9 17-13 1-1 4-1 5-1 2 1 4 3 4 5 0 2-1 4-3 5-14 11-29 21-43 31l-7 5c-2 2-4 2-6 1-2-1-3-2-3-6 0-13 2-26 6-38 14-44 49-77 94-88 5-1 10-2 15-2z m9 339c-18 0-33 15-34 34 0 9 4 18 10 24 7 7 15 10 24 10 19 0 34-15 34-34 0-18-14-33-33-34z m0 55c-5 0-11-2-14-6-4-4-7-9-7-15 1-6 3-11 7-15 4-4 9-6 14-6 12 0 21 10 21 21 0 12-9 21-20 21z"/>
<glyph glyph-name="step" unicode="&#108;" d="M234 203l-78-85-98-108c-9-9-17-12-26-8-10 4-12 12-12 22 0 155 0 309 0 463 0 13 4 21 13 24 9 3 19-1 25-9 56-62 113-124 169-186 3-3 5-5 9-10l0 13c0 56 0 112 0 169 0 9 2 18 12 22 10 5 17 2 26-7 43-48 86-95 129-143l50-54 0 179c0 3 0 7 0 10 2 9 10 16 20 16 9-1 17-8 19-17 0-5 0-11 0-16 0-231 0-221 0-452 0-4-1-8-2-13-2-8-10-14-19-13-9 0-16 7-18 15-1 4-1 8-1 12 0 55 0 110 0 165l0 13c-4-5-6-7-9-10-56-61-112-122-168-184-3-4-8-8-13-10-14-4-25 5-26 20 0 57 0 113 0 169l0 13z m42-133l170 186-170 185z m-216 1l170 185-170 185z"/>
<glyph glyph-name="name" unicode="&#109;" d="M507 66c3-2 5-6 5-10 0-3-1-7-3-10-2-2-4-3-6-4-2 0-4-1-6-1-1 0-3 0-5 1-1 0-3 1-4 3-16 14-33 27-51 38-19 10-38 20-57 27-20 8-40 13-61 17-42 8-85 8-127 0-21-4-41-9-61-17-19-7-38-17-56-27-18-11-36-24-52-38-2-3-6-4-10-4-4 0-7 2-10 5-2 3-3 7-3 10 0 4 2 8 5 10 17 15 35 29 55 41 20 12 40 22 61 30 22 8 44 14 66 18 45 9 92 9 137 0 23-4 45-10 66-18 21-8 42-18 61-30 20-12 38-26 56-41z m-300 163c-15 7-29 16-40 27-12 11-21 25-27 40-7 15-10 32-10 49 0 17 3 34 10 49 6 15 15 29 27 40 12 11 25 21 40 27 15 7 32 10 49 10 16 0 33-3 48-10 15-6 29-16 41-27 11-12 20-25 26-40 7-15 11-32 11-49 0-17-4-33-11-49-12-30-36-54-67-67-31-13-66-13-97 0z m49 213c-26 1-51-10-69-28-18-18-28-43-28-69 0-25 10-50 28-68 18-19 43-29 69-29 25 0 50 10 68 29 19 18 29 43 29 68 0 26-10 51-29 69-18 18-42 29-68 28z"/>
<glyph glyph-name="email" unicode="&#110;" d="M504 394c5-5 8-12 8-18l0-240c0-14-11-25-25-25l-461 0c-7-1-14 2-18 7-5 5-8 12-8 18l0 240c0 6 3 13 8 18 4 5 11 7 18 7l460 0c7 0 13-2 18-7z m-312-128l-163 93 0-206z m28-16l-159-110 389 0-158 110-23-13c-3-1-5-2-7-3-2 0-4 0-6 0-2 0-5 0-7 0-2 1-4 2-6 3z m227 122l-383 0 192-109z m-128-106l163-113 0 206z"/>
<glyph glyph-name="text" unicode="&#111;" d="M45 99l416 0 0-31-416 0z m-37-19l23 22 78-78-23-22z m0 2l73 78 23-22-73-78z m395 56l23 22 78-78-23-22z m5-114l73 78 23-22-73-78z m-170 473l31 0 0-311-31 0z m-219 13l469 0 0-31-469 0z m158-295l153 0 0-31-153 0z m282 293l31 0 0-90-31 0z m-443 0l32 0 0-90-32 0z"/>
<glyph glyph-name="mask" unicode="&#112;" d="M506 390c4-4 6-9 6-14l0-240c0-5-2-10-6-14-3-3-8-5-14-5l-472 0c-5 0-10 2-14 5-4 4-6 9-6 14l0 240c0 5 2 10 6 14 4 3 9 5 14 5l473 0c5 0 10-2 13-5z m-22-23l-455 0 0-221 455 0z m-399-65c-1 1-2 2-2 3l0 24c0 2 1 3 2 4 1 1 2 2 3 2l27 0c2 0 3-1 4-2 1-1 2-2 2-4l0-24c0-1-1-2-2-3-1-1-2-2-4-2l-26 0c-2 0-3 1-4 2z m51-62c-1 1-1 2-2 4l0 24c0 1 1 2 2 3 1 1 3 2 4 2l27 0c3 0 5-2 5-5l0-24c0-2-1-3-1-4-1-1-3-1-4-1l-27 0c-1 0-3 0-4 1z m237-40c3-3 5-7 5-10 0-4-2-8-5-11-3-3-6-4-10-4l-213 0c-8 0-15 6-15 15 0 4 2 7 5 10 3 3 6 4 10 4l212 0c4 0 8-1 11-4z m-185 102c-1 1-1 2-1 3l0 24c-1 2 0 3 1 4 1 1 2 2 4 2l26 0c2 0 3-1 4-2 1-1 2-2 1-4l0-24c0-1 0-2-1-3-1-1-2-2-4-2l-26 0c-2 0-3 1-4 2z m55-64c-2 0-3 1-4 2-1 1-1 2-1 4l0 24c0 1 0 2 1 3 1 1 2 2 4 2l27 0c1 0 3-1 4-2 1-1 1-2 1-3l0-24c0-3-2-5-5-5z m48 64c-1 1-2 2-2 3l0 24c0 2 0 3 1 4 1 1 3 2 4 2l27 0c1 0 3-1 4-2 1-1 1-2 1-4l0-24c0-1 0-2-1-3-1-1-3-2-4-2l-27 0c-1 0-2 1-3 2z m51-62c-1 1-2 2-2 4l0 24c0 1 1 2 2 3 1 1 2 2 3 2l27 0c2 0 3-1 4-2 1-1 2-2 2-3l0-24c0-2-1-3-2-4-1-1-2-2-4-1l-27 0c-1 0-2 0-3 1z m51 62c-1 1-1 2-1 3l0 24c0 2 0 3 1 4 1 1 3 2 4 2l27 0c1 0 3-1 4-2 1-1 1-3 1-4l0-24c0-3-2-5-5-5l-27 0c-1 0-3 1-4 2z"/>
<glyph glyph-name="textarea" unicode="&#113;" d="M403 499l35 0 0-497-35 0z m-70 0l35 0 0-497-35 0z m-25-386c-88 0-186 18-239 115-39 68-32 153 18 214 57 70 135 69 210 68l18 0c66-1 123 0 145 0l8 0 0-35-8 0c-21 0-79-1-145-1l-18 0c-73 1-136 2-183-54-40-50-46-120-14-176 51-93 158-100 244-96l2-35c-13 0-25 0-38 0z"/>
<glyph glyph-name="address" unicode="&#114;" d="M324 498c42-17 75-51 92-93 9-21 14-44 14-67 0-23-8-52-25-87-16-36-34-70-54-104-20-34-38-63-55-89-17-25-26-39-28-41l-12-17-12 17c-2 2-11 16-28 41-17 25-36 55-56 88-19 34-37 69-54 105-16 35-24 64-24 87 0 23 5 46 14 67 17 42 50 76 92 93 21 9 45 14 68 14 23 0 46-5 68-14z m-24-381c16 27 32 54 47 81 14 26 27 52 38 79 11 25 16 45 16 61 0 19-4 38-12 56-14 35-42 62-77 77-36 15-76 15-112 0-18-7-33-18-46-31-14-13-24-29-31-46-8-18-12-37-12-56 0-16 5-36 16-62 11-26 24-53 38-78 15-27 31-54 47-81 17-26 32-48 44-66 12 18 27 40 44 66z m10 281c14-14 22-33 22-53 0-20-8-40-22-54-15-14-34-22-54-22-20 0-39 8-54 22-14 14-22 34-22 54 0 20 8 39 22 53 15 14 34 22 54 22 20 1 39-7 54-22z m-54-100c12 0 24 5 33 14 9 9 14 20 13 33 0 25-20 46-46 46-26 0-46-21-47-46 0-13 5-25 14-33 9-9 21-14 33-14z"/>
<glyph glyph-name="country" unicode="&#115;" d="M397 244c0 0 0-1 0-2l0-3c0 0 0 0 0 0 0-1 0-1 0-1 0 0 0-1 0-1 0 0 0 0 0 0 0 0-1-1-1-1 0 0 0 0 0-1 0 0 0 0-1 0 0 0 0 0 0-1 0 0 0 0 0 0l0-1-2-2c0 0 0-1-1-1 0 0 0 0 0 0-1-1-3-1-4-2-1 0-3 0-4 0l-127 0c-13 0-23 10-23 23l0 28-90 0 0-264c0-4-2-8-5-11-4-3-8-4-13-3-3 1-6 3-8 6-2 2-3 5-3 9l0 480c0 5 2 9 5 12 3 3 8 4 12 3 4-1 6-3 9-5 2-3 3-6 3-10l0-40 120 0c4 0 8-1 11-4 2-3 4-7 4-11l0-36 103 0c1 0 2-1 3-1 1 0 2 0 3-1 1 0 1 0 1 0 0 0 1-1 1-1 1 0 1 0 1-1 0 0 0 0 1 0l1-2c1 0 1 0 1-1l0 0c1 0 1 0 1-1 0 0 0 0 0-1 0 0 1 0 1-1 0 0 0-1 0-1l1-1 0-6c0 0 0-1-1-1 0-1 0-1 0-2l-29-66c-1-1-1-2 0-4l29-66c0-1 0-1 0-2 0 0 1-1 1-2z m-253 64l106 0 0 119-106 0z m118-29l0-17c0-2 1-3 2-4 1-1 2-1 4-1l93 0-24 57c-1 1-1 3 0 4l24 58-82 0 0-82c0-4-2-8-4-11-3-3-7-4-11-4z"/>
<glyph glyph-name="dropdown" unicode="&#117;" d="M407 0l-302 0c-58 0-105 47-105 105l0 302c0 58 47 105 105 105l302 0c58 0 105-47 105-105l0-302c0-58-47-105-105-105z m-302 483c-42 0-76-34-76-76l0-302c0-42 34-76 76-76l302 0c42 0 76 34 76 76l0 302c0 42-34 76-76 76z m151-324c-8 0-16 4-22 10l-111 111c-10 9-12 23-7 35 4 12 16 20 29 19l223 0c13 1 25-7 29-19 5-12 3-26-7-35l-111-111c-6-6-14-10-23-10z m-114 143c0-1 1-1 1-1l112-112c1-1 1-1 1-1 1 0 1 0 2 1l112 112c0 0 0 0 1 1 0 1-1 1-1 2 0 0 0 1-1 1 0 0-1 0-1 0l-223 0c-1 0-1 0-1 0-1 0-1-1-1-1-1-1-1-1-1-2z"/>
<glyph glyph-name="radio" unicode="&#118;" d="M256 0c-141 0-256 115-256 256 0 141 115 256 256 256 141 0 256-115 256-256 0-141-115-256-256-256z m0 483c-125 0-227-102-227-227 0-125 102-227 227-227 125 0 227 102 227 227 0 125-102 227-227 227z m0-322c-52 0-95 43-95 95 0 52 43 95 95 95 52 0 95-43 95-95 0-52-43-95-95-95z m0 161c-36 0-66-30-66-66 0-36 30-66 66-66 36 0 66 30 66 66 0 36-30 66-66 66z"/>
<glyph glyph-name="checkbox-1" unicode="&#119;" d="M357 26l-255 0c-50 0-90 40-90 90l0 76 26 0 0-76c0-35 29-64 64-64l255 0c35 1 63 29 63 64l0 220 26 0 0-220c0-50-40-90-89-90z m-319 345l-26 0c0 49 40 89 90 89l256 0 0-26-256 0c-35 0-64-28-64-63z m124-208l-161 123 16 21 144-110 333 289 17-20z"/>
<glyph glyph-name="multiple-choice" unicode="&#120;" d="M140 366l-140 0 0 139 140 0z m-112 28l83 0 0 83-83 0z m112-208l-140 0 0 140 140 0z m-112 29l83 0 0 82-83 0z m112-208l-140 0 0 139 140 0z m-112 28l83 0 0 83-83 0z m176 410l308 0 0-28-308 0z m0-183l308 0 0-28-308 0z m0-175l308 0 0-28-308 0z"/>
<glyph glyph-name="website-url" unicode="&#121;" d="M254 176l-20 20 119 119-156 157-157-157 51-50-20-20-71 70 197 197 196-197z m61-176l-196 197 128 128 20-20-108-108 156-157 157 157-51 50 20 20 71-70z"/>
<glyph glyph-name="password" unicode="&#122;" d="M475 0l-438 0 0 282 438 0z m-409 29l380 0 0 224-380 0z m342 224l-304 0 0 107c0 84 68 152 152 152 84 0 152-68 152-152z m-275 29l246 0 0 78c1 44-22 86-61 109-38 22-86 22-124 0-38-23-62-65-61-109z"/>
<glyph glyph-name="date" unicode="&#65;" d="M422 0l-332 0c-16 0-31 6-42 18-12 11-18 26-18 42l0 245c0 7 3 14 8 19 5 5 11 7 18 7l399 0c15 0 27-12 27-26l0-245c0-33-27-60-60-60z m-362 301l0-241c0-8 3-16 9-21 5-6 13-9 21-9l332 0c16 0 30 13 30 30l0 241z m395 30l-399 0c-7 0-13 3-18 8-5 5-8 12-8 19l0 34c0 16 6 31 18 42 11 12 26 18 42 18l30 0 0 34c0 7 3 13 8 18 5 5 12 8 19 8l37 0c7 0 14-3 19-8 5-5 8-11 8-18l0-34 90 0 0 34c0 7 3 13 8 18 5 5 12 8 19 8l37 0c7 0 14-3 19-8 5-5 8-11 8-18l0-34 30 0c33 0 60-27 60-60l0-34c0-7-3-14-8-19-5-5-12-8-19-8z m-395 30l392 0 0 30c0 17-14 30-30 30l-60 0 0 61-31 0 0-60-150 0 0 60-30 0 0-60-61 0c-8 0-16-3-21-9-6-6-9-13-9-21z"/>
<glyph glyph-name="files" unicode="&#66;" d="M496 173c4 0 8-2 11-5 3-3 4-6 4-10l0-135c0-7-2-13-7-17-6-4-12-6-19-6l-458 0c-7 0-13 2-19 6-5 4-7 10-7 17l0 135c0 4 1 8 4 11 3 2 7 4 11 4 5 0 8-2 11-5 3-3 5-6 5-10l0-128 449 0 0 128c0 4 2 8 5 11 3 2 6 4 10 4z m-327 222c-1 0-3 2-5 3-2 3-4 7-4 11 0 4 2 8 4 11l93 92 91-92c3-3 5-7 4-11 0-4-1-8-4-11-6-6-15-6-22 0l-54 56 0-310c0-4-2-8-5-11-2-3-7-5-11-5-4 0-8 2-11 5-3 3-4 7-4 11l0 310-55-56c-2-1-4-2-5-3-2-1-4-1-6-1-2 0-4 0-6 1z"/>
<glyph glyph-name="images" unicode="&#67;" d="M473 506c4-4 6-10 6-16l0-467c0-6-2-12-6-16-5-5-10-7-16-7l-401 0c-6 0-12 2-16 6-5 4-7 10-7 16l0 468c0 6 2 12 7 16 4 4 10 6 15 6l401 0c6 0 12-2 17-6z m-411-477l388 0 0 181c-6-4-11-8-16-13-6-4-11-8-17-13-14-13-28-25-43-35-16-11-35-17-55-17-5 0-11 0-16 2-6 1-12 3-17 5-6 2-12 5-18 9-5 4-10 8-14 13l-3 2c-10 7-19 14-29 21-9 7-20 12-31 15-17 6-35 4-50-4-17-8-34-17-49-28-5-2-10-5-15-8-5-4-10-6-15-9l0-121z m388 454l-387 0 0-299c2 1 5 3 7 4 2 1 4 3 6 4 19 12 39 22 59 32 20 9 44 11 66 4 13-4 26-10 37-18 11-8 22-16 32-24l4-4c4-3 7-6 11-9 4-3 7-5 12-7 17-8 37-6 53 4 17 11 33 23 48 36l17 15c6 5 12 10 19 14 2 1 5 3 7 5 3 2 6 4 9 6z m-168-178c-13 13-21 31-20 49 0 19 7 38 21 51 13 13 31 21 50 21 19 0 36-8 50-21 13-14 21-32 20-51 0-39-32-70-71-70-18 0-36 7-50 21z m22 79c-8-7-13-18-12-29-1-11 4-21 12-28 16-16 42-16 58 0 8 7 12 18 11 28 1 11-4 22-11 30-8 7-18 12-29 12-11 0-22-5-29-12z"/>
<glyph glyph-name="gdpr" unicode="&#69;" d="M500 405c-44 6-87 17-128 33-41 16-79 40-112 70l-5 4-4-4c-60-56-136-88-239-103l-6 0 0-8c0-2 0-3 0-5l1-12c1-10 2-21 2-32 3-34 9-68 18-101 19-66 57-126 110-170 35-29 73-54 113-75 2-1 4-2 5-2 3 0 5 1 7 2 33 18 65 38 95 61 64 47 109 115 129 191 9 35 14 71 17 107 1 8 1 17 1 25 0 4 1 8 1 12l0 6z m-47-35c0-4 0-7-1-11-2-37-7-74-17-110-17-58-52-109-101-145-25-19-51-35-79-50-35 19-69 42-99 68-38 34-66 79-79 128-10 33-15 67-17 101 0 6-1 11-1 17l0 2c84 13 147 39 197 84 50-45 113-71 197-84z m-208 4c-7-21-14-42-20-63l-67 0c-5 0-9-3-11-7l-1 0 1 0c-2-5 0-10 4-13l12-9 42-30c-7-21-13-42-20-63-1-3-1-5-1-7 1-4 3-7 7-8 3-1 8-1 11 2l54 39 53-39c2-1 4-2 6-3l2 0c3 0 6 2 8 4 3 3 3 8 2 12-4 13-9 26-13 39l-7 23c4 3 8 7 12 10l42 30c3 2 4 5 5 8 0 3-1 6-3 8-3 3-6 4-9 4l-67 0-10 31-4 14c-2 6-4 12-6 19-2 3-4 6-8 7-3 1-7 1-9-1-2-2-4-4-5-7z m37-83l45 0-37-27c-4-3-6-8-4-13l14-44-36 26c-4 5-11 5-16 0l-36-26 14 44c2 5 0 10-4 13l-37 27 45 0c6-1 11 3 12 9l14 43 14-43c1-6 6-9 12-9z"/>
<glyph glyph-name="three-column" unicode="&#71;" d="M491 512l-470 0-21-21 0-470 21-21 470 0 21 21 0 470z m-185-141l0-329-105 0 0 329z m-264 0l117 0 0-329-117 0z m306-329l0 329 122 0 0-329z"/>
<glyph glyph-name="repeat" unicode="&#70;" d="M498 479l-32 0 0-59c-86 103-237 122-346 44-109-79-139-228-68-342 70-115 217-155 336-93l-15 28c-32-16-67-25-103-25-105 0-196 72-219 174-23 102 27 207 121 252 95 45 208 19 273-62l-57-2 1-32 108 3 0 2 1 0z"/>
<glyph glyph-name="numeric" unicode="&#116;" d="M25 173l0 12c6 15 18 20 34 20 27-1 54 0 82 0l7 0 11 102-7 0c-33 0-66 0-99 0-10 0-20 5-25 14-1 2-1 4-2 6l0 12c6 15 17 20 33 20 33-1 66 0 99 0l7 0c0 4 1 7 1 10 5 40 9 81 14 121 1 13 14 23 27 22 14-1 24-13 23-27-3-30-6-59-9-89-2-12-3-24-4-37l101 0c1 3 1 6 2 9 4 41 9 81 13 122 2 14 14 24 28 22 15-2 25-15 23-29-4-33-8-66-11-100-1-8-2-16-3-24l90 0c10 0 19-5 23-13 2-2 3-5 4-7l0-12c-6-15-17-20-33-20-28 1-55 0-83 0l-7 0c-3-34-7-68-11-103l8 0c33 0 66 0 99 0 10 1 19-4 24-14 1-1 2-3 3-5l0-12c-6-15-17-20-33-20-33 1-66 0-99 0l-7 0c-1-4-1-7-2-10-4-40-9-81-13-121-2-14-14-23-28-22-14 1-24 13-23 27 3 29 6 59 10 88 1 13 2 25 4 38l-102 0c-1-3-1-6-1-9-5-41-10-81-14-122-1-14-14-24-28-22-14 1-24 14-23 28l11 100c1 8 2 17 3 26l-90 0c-10-1-18 4-23 12-1 2-2 5-4 7z m186 134l-12-102 102 0 12 102z"/>
<glyph glyph-name="credit-card" unicode="&#97;" d="M461 435c14 0 26-5 36-15 10-10 15-22 15-36 0 0 0-256 0-256 0-14-5-26-15-36-10-10-22-15-36-15 0 0-410 0-410 0-13 0-25 5-36 15-10 10-15 22-15 36 0 0 0 256 0 256 0 14 5 26 15 36 11 10 23 15 36 15 0 0 410 0 410 0m0-307c0 0 0 154 0 154 0 0-410 0-410 0 0 0 0-154 0-154 0 0 410 0 410 0m0 230c0 0 0 26 0 26 0 0-410 0-410 0 0 0 0-26 0-26 0 0 410 0 410 0m-359-131c0 0 16 0 16 0 0 0 0-15 0-15 0 0-16 0-16 0 0 0 0 15 0 15m93-30c0 0 15 0 15 0 0 0 0 15 0 15 0 0 15 0 15 0 0 0 0 15 0 15 0 0 31 0 31 0 0 0 0-15 0-15 0 0-15 0-15 0 0 0 0-15 0-15 0 0-16 0-16 0 0 0 0-16 0-16 0 0-30 0-30 0 0 0 0 16 0 16m61-16c0 0-15 0-15 0 0 0 0 16 0 16 0 0 15 0 15 0 0 0 0-16 0-16m-77 0c0 0-31 0-31 0 0 0 0 16 0 16 0 0 31 0 31 0 0 0 0-16 0-16m16 31c0 0 0-15 0-15 0 0-16 0-16 0 0 0 0 30 0 30 0 0 31 0 31 0 0 0 0-15 0-15 0 0-15 0-15 0m-62-15c0 0 0-16 0-16 0 0-31 0-31 0 0 0 0 16 0 16 0 0 16 0 16 0 0 0 0 15 0 15 0 0 15 0 15 0 0 0 0 15 0 15 0 0 31 0 31 0 0 0 0-15 0-15 0 0-16 0-16 0 0 0 0-15 0-15 0 0-15 0-15 0"/>
<glyph glyph-name="keyboard-o" unicode="&#68;" d="M91 178l0-27c0-3-1-5-4-5l-28 0c-3 0-4 2-4 5l0 27c0 3 1 5 4 5l28 0c3 0 4-2 4-5z m37 73l0-27c0-3-2-5-5-5l-64 0c-3 0-4 2-4 5l0 27c0 3 1 5 4 5l64 0c3 0 5-2 5-5z m-37 74l0-28c0-3-1-4-4-4l-28 0c-3 0-4 1-4 4l0 28c0 3 1 4 4 4l28 0c3 0 4-1 4-4z m293-147l0-27c0-3-2-5-5-5l-246 0c-3 0-5 2-5 5l0 27c0 3 2 5 5 5l246 0c3 0 5-2 5-5z m-183 73l0-27c0-3-1-5-4-5l-28 0c-3 0-4 2-4 5l0 27c0 3 1 5 4 5l28 0c3 0 4-2 4-5z m-36 74l0-28c0-3-2-4-5-4l-27 0c-3 0-5 1-5 4l0 28c0 3 2 4 5 4l27 0c3 0 5-1 5-4z m109-74l0-27c0-3-1-5-4-5l-28 0c-3 0-4 2-4 5l0 27c0 3 1 5 4 5l28 0c3 0 4-2 4-5z m-36 74l0-28c0-3-2-4-5-4l-27 0c-3 0-5 1-5 4l0 28c0 3 2 4 5 4l27 0c3 0 5-1 5-4z m109-74l0-27c0-3-1-5-4-5l-28 0c-3 0-4 2-4 5l0 27c0 3 1 5 4 5l28 0c3 0 4-2 4-5z m110-73l0-27c0-3-1-5-4-5l-28 0c-3 0-4 2-4 5l0 27c0 3 1 5 4 5l28 0c3 0 4-2 4-5z m-146 147l0-28c0-3-2-4-5-4l-27 0c-3 0-5 1-5 4l0 28c0 3 2 4 5 4l27 0c3 0 5-1 5-4z m73 0l0-28c0-3-2-4-5-4l-27 0c-3 0-5 1-5 4l0 28c0 3 2 4 5 4l27 0c3 0 5-1 5-4z m73 0l0-101c0-3-1-5-4-5l-64 0c-3 0-5 2-5 5l0 27c0 3 2 5 5 5l32 0 0 69c0 3 1 4 4 4l28 0c3 0 4-1 4-4z m37-215l0 256-476 0 0-256z m36 256l0-256c0-10-3-19-10-26-8-7-16-11-26-11l-476 0c-10 0-18 4-26 11-7 7-10 16-10 26l0 256c0 10 3 18 10 26 8 7 16 10 26 10l476 0c10 0 18-3 26-10 7-8 10-16 10-26z"/>
<glyph glyph-name="shopping-cart" unicode="&#72;" d="M201 73c0-10-3-18-11-26-7-7-16-10-25-10-10 0-19 3-26 10-7 8-11 16-11 26 0 10 4 19 11 26 7 7 16 11 26 11 9 0 18-4 25-11 8-7 11-16 11-26z m256 0c0-10-3-18-11-26-7-7-16-10-25-10-10 0-19 3-26 10-7 8-11 16-11 26 0 10 4 19 11 26 7 7 16 11 26 11 9 0 18-4 25-11 8-7 11-16 11-26z m37 311l0-146c0-5-2-9-5-12-3-4-7-6-12-7l-298-34c3-12 4-19 4-20 0-3-2-10-7-19l263 0c5 0 9-2 13-5 3-4 5-8 5-13 0-5-2-9-5-13-4-3-8-5-13-5l-293 0c-5 0-9 2-13 5-3 4-5 8-5 13 0 2 1 5 2 9 2 4 3 7 5 10 1 3 3 7 6 12 3 4 4 7 4 8l-50 235-58 0c-5 0-10 2-13 6-4 3-6 8-6 13 0 5 2 9 6 12 3 4 8 6 13 6l73 0c3 0 5-1 8-2 2-1 4-3 5-4 2-2 3-4 4-7 1-3 2-6 2-8 1-2 1-5 2-8 1-4 1-6 1-8l343 0c5 0 10-2 13-5 4-4 6-8 6-13z"/>
<glyph glyph-name="link" unicode="&#73;" d="M369 352l-49 0c0 0 26-17 32-48l17 0c17 0 31-14 31-32l0-32c0-17-14-32-31-32l-112 0c-18 0-33 15-33 32l0 32-48 0 0-32c0-11 3-22 7-32 13-28 41-48 74-48l112 0c44 0 79 36 79 80l0 32c0 45-35 80-79 80z m-39-48c-12 28-40 48-73 48l-112 0c-45 0-81-35-81-80l0-32c0-44 36-80 81-80l47 0c0 0-26 17-32 48l-15 0c-18 0-33 15-33 32l0 32c0 18 15 32 33 32l112 0c17 0 31-14 31-32l0-32c0 0 0 0 0 0l48 0c0 0 0 0 0 0l0 32c0 12-2 22-6 32z"/>
<glyph glyph-name="ios-cart-outline" unicode="&#74;" d="M160 112c-13 0-24-11-24-24 0-13 11-24 24-24 13 0 24 11 24 24 0 13-11 24-24 24z m0-32c-4 0-8 4-8 8 0 4 4 8 8 8 4 0 8-4 8-8 0-4-4-8-8-8z m225 32c-14 0-24-11-24-24 0-13 10-24 24-24 13 0 24 11 24 24 0 13-11 24-24 24z m0-32c-5 0-8 4-8 8 0 4 3 8 8 8 4 0 8-4 8-8 0-4-4-8-8-8z m63 304l-325 32c-1 7-4 15-12 21-9 8-24 11-47 11l0-16c19 0 31-3 37-7 5-4 6-9 7-16l0 0 43-234c2-15 7-25 13-33 7-9 17-14 28-14l240 0 0 16-240 0c-5 0-19 0-26 34l-5 30 271 48z m-29-114l-261-46-32 176 304-31z"/>
<glyph glyph-name="tint" unicode="&#75;" d="M256 183c0 7-2 13-6 20 0 0-1 2-4 6-3 4-5 8-7 11-3 3-5 7-8 12-2 6-4 10-6 15 0 3-2 4-6 4-3 0-5-1-6-4-1-5-3-9-6-15-2-5-5-9-7-12-2-3-4-7-7-11-3-4-4-6-4-6-4-7-6-13-6-20 0-10 3-19 11-26 7-7 15-11 25-11 11 0 19 4 26 11 7 7 11 16 11 26z m146 36c0-40-14-74-43-103-28-29-63-43-103-43-40 0-75 14-103 43-29 29-43 63-43 103 0 28 7 54 23 79 1 2 7 10 18 26 10 15 20 30 29 43 8 13 18 30 28 51 10 21 18 40 24 57 1 6 5 11 9 14 5 3 10 5 15 5 5 0 10-2 15-5 5-3 8-8 9-14 6-17 14-36 24-57 10-21 20-38 28-51 9-13 19-28 29-43 11-16 17-24 18-26 16-24 23-50 23-79z"/>
</font>
</defs>
</svg>
